Lupin III - La pietra della saggezza (1978).H264.4xIta.Jpn.Ac3.5.1.sub.ita.iCV-MIRCrew

Main Language: | Added:21-08-2017 | Author: robbyrs | Category: Animation/Cartoons |

Size:

1.36 GB

Seeders:

0

Leechers:

3

Complete:

0

Description:

Full Title: Lupin III - La pietra della saggezza (1978).H264.4xIta.Jpn.Ac3.5.1.sub.ita.iCV-MIRCrew
Lupin III - La pietra della saggezza (1978).H264.4xIta.Jpn.Ac3.5.1.sub.ita.iCV-MIRCrew




NO FOUND ONLY ORIGINAL RELEASE



My release is always in double track audio italian and Original audio
for select it use VLC or dvd player home
not use wmp

Lupin III - La pietra della saggezza (1978)

Presenti 4 tracce audio ITA vari doppiaggi







Titolo originale ルパン三世 (Rupan Sansei)
Lingua originale giapponese
Paese di produzione Giappone
Anno 1978
Durata 102 min
Rapporto 1.85:1
Genere animazione
Regia Soji Yoshikawa
Soggetto Monkey Punch
Sceneggiatura Sōji Yoshikawa, Atsushi Yamatoya
Casa di produzione TMS Entertainment
Distribuzione (Italia) Harmony Film (1979)
Musiche Yuji Ono



Naomi Watts, Jacob Tremblay, Oliver Platt, Charlie Heaton, David Cubitt, Tim Post, Crystal Balint, Clémentine Poidatz



Doppiatori originali

    Yasuo Yamada: Arsenio Lupin III
    Kiyoshi Kobayashi: Daisuke Jigen
    Eiko Masuyama: Fujiko Mine
    Makio Inoue: Goemon Ishikawa XIII
    Gorō Naya: Koichi Zenigata
    Akira Nishimura: Mamoo
    Tōru Ōhira: Gissinger
    Hidekatsu Shibata: Gordon
    Kōsei Tomita: Capo della Polizia
    Shōzō Iizuka: Flinch

Doppiatori italiani:

Edizione cinematografica (1979)

    Roberto Del Giudice: Arsenio Lupin III
    Sandro Pellegrini: Daisuke Jigen
    Piera Vidale: Fujiko Mine
    Vittorio Guerrieri: Goemon Ishikawa XIII
    Enzo Consoli: Koichi Zenigata
    Germano Longo: Mamoo
    Vittorio Di Prima: Gordon
    Gino Pagnani: Gissinger, voci nastro

Prima edizione televisiva (1986)

    Roberto Del Giudice: Arsenio Lupin III
    Sandro Pellegrini: Daisuke Jigen
    Alessandra Korompay: Fujiko Mine
    Vittorio Guerrieri: Goemon Ishikawa XIII
    Enzo Consoli: Koichi Zenigata, Flinch
    Vittorio Di Prima: Mamoo
    Mimmo Maugeri: Gordon
    Sandro Sardone: Gissinger, Chirugo
    Dante Biagioni: Capo della Polizia
    Ermanno Ribaudo: Scienziati

Edizione home video (anni '90)

    Giorgio Melazzi: Arsenio Lupin III
    Marco Balzarotti: Daisuke Jigen
    Roberta Gallina Laurenti: Fujiko Mine
    Flavio Arras: Goemon Ishikawa XIII
    Maurizio Scattorin: Koichi Zenigata
    Riccardo Peroni: Mamoo
    Ivo De Palma: Gordon, Scienziati
    Antonio Paiola: Capo della Polizia
    Luca Semeraro: Scienziati

Seconda edizione televisiva (2007)

    Roberto Del Giudice: Arsenio Lupin III
    Sandro Pellegrini: Daisuke Jigen
    Alessandra Korompay: Fujiko Mine
    Antonio Palumbo: Goemon Ishikawa XIII
    Rodolfo Bianchi: Koichi Zenigata
    Ambrogio Colombo: Mamoo
    Paolo Lombardi: Gissinger
    Saverio Indrio: Gordon




L'ispettore Zenigata riceve la notizia che il suo nemico giurato Lupin III è stato giustiziato. Anche lo stesso Lupin ha saputo la novità e quando entrambi si recano in Transilvania per controllare, si accorgono che l'uomo morto è un sosia perfetto di Lupin.



While attempting to win the affections of a beautiful rival, a master thief risks death to learn the secret and intentions of a wealthy and seemingly immortal, but certainly ruthless, recluse








[spoiler]
General
Unique ID                                : 204250225135562938847692355555378046028 (0x99A92997DF60C30695DB364E2CAFA44C)
Complete name                            : Lupin III Movie (1978) La pietra della saggezza.H264.ita.ita.ita.jpn.sub.ita.iCV-MIRCrew (1)\Lupin III Movie (1978) La pietra della saggezza.H264.ita.ita.ita.jpn.sub.ita.iCV-MIRCrew (1).mkv
Format                                   : Matroska
Format version                           : Version 2
File size                                : 1.36 GiB
Duration                                 : 1h 42mn
Overall bit rate                         : 1 907 Kbps
Movie name                               : Lupin III Movie (1978) La pietra della saggezza.H264.ita.ita.ita.jpn.sub.ita.iCV-MIRCrew
Encoded date                             : UTC 2017-01-14T21:49:50Z
Writing application                      : mkvmerge v5.4.0 ('Piper') built on Mar 10 2012 13:34:39
Writing library                          : Lavf55.12.0

Video
ID                                       : 1
Format                                   : AVC
Format/Info                              : Advanced Video Codec
Format profile                           : [email protected]
Format settings, CABAC                   : Yes
Format settings, ReFrames                : 4 frames
Muxing mode                              : Header stripping
Codec ID                                 : V_MPEG4/ISO/AVC
Duration                                 : 1h 42mn
Bit rate                                 : 1 270 Kbps
Width                                    : 720 pixels
Height                                   : 404 pixels
Display aspect ratio                     : 16:9
Original display aspect ratio            : 16:9
Frame rate mode                          : Variable
Frame rate                               : 23.976 fps
Color space                              : YUV
Chroma subsampling                       : 4:2:0
Bit depth                                : 8 bits
Scan type                                : Progressive
Bits/(Pixel*Frame)                       : 0.182
Stream size                              : 898 MiB (64%)
Title                                    : Lupin III Movie (1978) La pietra della saggezza.H264.ita.ita.ita.jpn.sub.ita.iCV-MIRCrew
Writing library                          : x264 core 142 r2479 dd79a61
Encoding settings                        : cabac=1 / ref=1 / deblock=1:0:0 / analyse=0x1:0x111 / me=hex / subme=2 / psy=1 / psy_rd=1.00:0.00 / mixed_ref=0 / me_range=16 / chroma_me=1 / trellis=0 / 8x8dct=0 / cqm=0 / deadzone=21,11 / fast_pskip=1 / chroma_qp_offset=0 / threads=12 / lookahead_threads=3 / sliced_threads=0 / nr=0 / decimate=1 / interlaced=0 / bluray_compat=0 / constrained_intra=0 / bframes=3 / b_pyramid=2 / b_adapt=1 / b_bias=0 / direct=1 / weightb=1 / open_gop=0 / weightp=1 / keyint=240 / keyint_min=24 / scenecut=40 / intra_refresh=0 / rc_lookahead=10 / rc=abr / mbtree=1 / bitrate=1270 / ratetol=1.0 / qcomp=0.60 / qpmin=0 / qpmax=69 / qpstep=4 / vbv_maxrate=20000 / vbv_bufsize=25000 / nal_hrd=none / filler=0 / ip_ratio=1.40 / aq=1:1.00
Language                                 : Italian
Default                                  : Yes
Forced                                   : No
Color primaries                          : BT.709-5, BT.1361, IEC 61966-2-4, SMPTE RP177
Transfer characteristics                 : BT.709-5, BT.1361
Matrix coefficients                      : BT.709-5, BT.1361, IEC 61966-2-4 709, SMPTE RP177

Audio #1
ID                                       : 2
Format                                   : MPEG Audio
Format version                           : Version 1
Format profile                           : Layer 3
Mode                                     : Joint stereo
Mode extension                           : MS Stereo
Muxing mode                              : Header stripping
Codec ID                                 : A_MPEG/L3
Codec ID/Hint                            : MP3
Duration                                 : 1h 42mn
Bit rate mode                            : Constant
Bit rate                                 : 128 Kbps
Channel(s)                               : 2 channels
Sampling rate                            : 48.0 KHz
Compression mode                         : Lossy
Delay relative to video                  : -23ms
Stream size                              : 93.5 MiB (7%)
Title                                    : Stereo
Writing library                          : LAME3.98
Language                                 : Italian
Default                                  : Yes
Forced                                   : No

Audio #2
ID                                       : 3
Format                                   : MPEG Audio
Format version                           : Version 1
Format profile                           : Layer 3
Mode                                     : Joint stereo
Mode extension                           : MS Stereo
Muxing mode                              : Header stripping
Codec ID                                 : A_MPEG/L3
Codec ID/Hint                            : MP3
Duration                                 : 1h 42mn
Bit rate mode                            : Constant
Bit rate                                 : 128 Kbps
Channel(s)                               : 2 channels
Sampling rate                            : 48.0 KHz
Compression mode                         : Lossy
Delay relative to video                  : -23ms
Stream size                              : 93.5 MiB (7%)
Title                                    : Stereo
Writing library                          : LAME3.98
Language                                 : Italian
Default                                  : No
Forced                                   : No

Audio #3
ID                                       : 4
Format                                   : MPEG Audio
Format version                           : Version 1
Format profile                           : Layer 3
Mode                                     : Joint stereo
Muxing mode                              : Header stripping
Codec ID                                 : A_MPEG/L3
Codec ID/Hint                            : MP3
Duration                                 : 1h 42mn
Bit rate mode                            : Constant
Bit rate                                 : 128 Kbps
Channel(s)                               : 2 channels
Sampling rate                            : 48.0 KHz
Compression mode                         : Lossy
Delay relative to video                  : -23ms
Stream size                              : 93.5 MiB (7%)
Title                                    : Stereo
Writing library                          : LAME3.98
Language                                 : Italian
Default                                  : No
Forced                                   : No

Audio #4
ID                                       : 5
Format                                   : MPEG Audio
Format version                           : Version 1
Format profile                           : Layer 3
Mode                                     : Joint stereo
Mode extension                           : MS Stereo
Muxing mode                              : Header stripping
Codec ID                                 : A_MPEG/L3
Codec ID/Hint                            : MP3
Duration                                 : 1h 42mn
Bit rate mode                            : Constant
Bit rate                                 : 128 Kbps
Channel(s)                               : 2 channels
Sampling rate                            : 48.0 KHz
Compression mode                         : Lossy
Delay relative to video                  : -23ms
Stream size                              : 93.5 MiB (7%)
Title                                    : Stereo
Writing library                          : LAME3.98
Language                                 : Italian
Default                                  : No
Forced                                   : No

Audio #5
ID                                       : 6
Format                                   : MPEG Audio
Format version                           : Version 1
Format profile                           : Layer 3
Mode                                     : Joint stereo
Mode extension                           : MS Stereo
Muxing mode                              : Header stripping
Codec ID                                 : A_MPEG/L3
Codec ID/Hint                            : MP3
Duration                                 : 1h 42mn
Bit rate mode                            : Constant
Bit rate                                 : 128 Kbps
Channel(s)                               : 2 channels
Sampling rate                            : 48.0 KHz
Compression mode                         : Lossy
Delay relative to video                  : -23ms
Stream size                              : 93.5 MiB (7%)
Title                                    : Stereo
Language                                 : Japanese
Default                                  : No
Forced                                   : No

Text #1
ID                                       : 7
Format                                   : ASS
Codec ID                                 : S_TEXT/ASS
Codec ID/Info                            : Advanced Sub Station Alpha
Compression mode                         : Lossless
Language                                 : Italian
Default                                  : No
Forced                                   : No

Text #2
ID                                       : 8
Format                                   : ASS
Codec ID                                 : S_TEXT/ASS
Codec ID/Info                            : Advanced Sub Station Alpha
Compression mode                         : Lossless
Language                                 : Italian
Default                                  : No
Forced                                   : No

Menu
00:00:00.000                             : :Capitolo 01
00:03:53.733                             : :Capitolo 02
00:11:13.714                             : :Capitolo 03
00:18:20.724                             : :Capitolo 04
00:28:49.310                             : :Capitolo 05
00:38:45.906                             : :Capitolo 06
00:44:13.525                             : :Capitolo 07
00:51:25.957                             : :Capitolo 08
01:09:22.450                             : :Capitolo 09
01:17:10.959                             : :Capitolo 10
01:35:44.488                             : :Capitolo 11
01:40:10.629                             : :Capitolo 12



[/spoiler]




Hash: 577FF916D4F09F61DC891E6BBA3D0D2BEA1D904A

If our torrent is not available, you can try to find it on Google or Torrageor Btcache.





Please rate and Add comment in form below.
Opinions about this torrent help others users