Lupin III - Il castello di Cagliostro - Rupan sansei Kariosutoro no shiro (1979).H264.ita.jpn-5.1.sub.ita.iCV-MIRCrew

Main Language: | Added:22-08-2017 | Author: robbyrs | Category: Animation/Cartoons |

Size:

1.5 GB

Seeders:

2

Leechers:

1

Complete:

0

Description:

Full Title: Lupin III - Il castello di Cagliostro - Rupan sansei Kariosutoro no shiro (1979).H264.ita.jpn-5.1.sub.ita.iCV-MIRCrew
Lupin III - Il castello di Cagliostro - Rupan sansei Kariosutoro no shiro (1979).H264.ita.jpn-5.1.sub.ita.iCV-MIRCrew




NO FOUND ONLY ORIGINAL RELEASE



My release is always in double track audio italian and Original audio
for select it use VLC or dvd player home
not use wmp

Lupin III - Il castello di Cagliostro - Rupan sansei Kariosutoro no shiro (1979)

Presenti 4 tracce audio ITA vari doppiaggi









    DATA USCITA: 06 luglio 2007
    GENERE: Animazione
    ANNO: 1979
    REGIA: Hayao Miyazaki
    PAESE: Giappone
    DURATA: 100 Min
    DISTRIBUZIONE: Mikado Film,




:::::::::::::::::::::::::::::::::::::::::::::::::::::::::::::::::::::::




Saccheggiare il casinò di Montecarlo o rubare il cuore a una bella donna? Non c’è furto impossibile per Lupin III, ladro gentiluomo, casanova e maestro dei travestimenti. Questa volta Lupin e il fedele Jigen hanno rintracciato la fonte delle banconote false che stanno mettendo in ginocchio l’economia mondiale



A flamboyant thief and his gang struggle to free a princess from an evil count's clutches and to learn the hidden secret to a fabulous treasure that she holds part of a key to.










[spoiler]
General
Unique ID                                : 200418552801614673035649548648187891667 (0x96C7358FC756F232BE3B253C0ADF0FD3)
Complete name                            : Lupin III Il castello di Cagliostro - Rupan sansei Kariosutoro no shiro (1979).H264.ita.jpn.sub.ita.iCV-MIRCrew.mkv
Format                                   : Matroska
Format version                           : Version 2
File size                                : 1.50 GiB
Duration                                 : 1h 40mn
Overall bit rate                         : 2 128 Kbps
Movie name                               : VISIT www.icv-crew.org
Encoded date                             : UTC 2009-01-05 23:13:58
Writing application                      : mkvmerge v5.4.0 ('Piper') built on Mar 10 2012 13:34:39
Writing library                          : Lavf54.63.100
COPYRIGHT                                : robbyrs

Video
ID                                       : 1
Format                                   : AVC
Format/Info                              : Advanced Video Codec
Format profile                           : [email protected]
Format settings, CABAC                   : Yes
Format settings, ReFrames                : 2 frames
Muxing mode                              : Header stripping
Codec ID                                 : V_MPEG4/ISO/AVC
Duration                                 : 1h 40mn
Bit rate                                 : 1 190 Kbps
Nominal bit rate                         : 1 250 Kbps
Width                                    : 720 pixels
Height                                   : 404 pixels
Display aspect ratio                     : 16:9
Original display aspect ratio            : 16:9
Frame rate mode                          : Variable
Frame rate                               : 23.976 fps
Color space                              : YUV
Chroma subsampling                       : 4:2:0
Bit depth                                : 8 bits
Scan type                                : Progressive
Bits/(Pixel*Frame)                       : 0.171
Stream size                              : 856 MiB (56%)
Title                                    : Lupin III Il castello di Cagliostro - Rupan sansei Kariosutoro no shiro (1979).H264.ita.jpn.sub.ita.iCV-MIRCrew
Writing library                          : x264 core 130 r2273
Encoding settings                        : cabac=1 / ref=2 / deblock=1:0:0 / analyse=0x1:0x131 / me=hex / subme=7 / psy=1 / psy_rd=1.00:0.00 / mixed_ref=0 / me_range=16 / chroma_me=1 / trellis=1 / 8x8dct=0 / cqm=0 / deadzone=21,11 / fast_pskip=1 / chroma_qp_offset=-2 / threads=12 / lookahead_threads=2 / sliced_threads=0 / nr=0 / decimate=1 / interlaced=0 / bluray_compat=0 / constrained_intra=0 / bframes=3 / b_pyramid=0 / b_adapt=1 / b_bias=0 / direct=3 / weightb=1 / open_gop=0 / weightp=2 / keyint=230 / keyint_min=23 / scenecut=40 / intra_refresh=0 / rc_lookahead=40 / rc=2pass / mbtree=1 / bitrate=1250 / ratetol=1.0 / qcomp=0.60 / qpmin=10 / qpmax=69 / qpstep=4 / cplxblur=20.0 / qblur=0.5 / vbv_maxrate=24000 / vbv_bufsize=24000 / nal_hrd=none / ip_ratio=1.40 / aq=1:1.00
Default                                  : Yes
Forced                                   : No

Audio #1
ID                                       : 2
Format                                   : AC-3
Format/Info                              : Audio Coding 3
Mode extension                           : CM (complete main)
Muxing mode                              : Header stripping
Codec ID                                 : A_AC3
Duration                                 : 1h 40mn
Bit rate mode                            : Constant
Bit rate                                 : 448 Kbps
Channel(s)                               : 6 channels
Channel positions                        : Front: L C R, Side: L R, LFE
Sampling rate                            : 48.0 KHz
Bit depth                                : 16 bits
Compression mode                         : Lossy
Delay relative to video                  : -5ms
Stream size                              : 322 MiB (21%)
Title                                    : Italian 5.1 - Doppiaggio Yamato/Dolmen/Mikado
Language                                 : Italian
Default                                  : Yes
Forced                                   : No

Audio #2
ID                                       : 3
Format                                   : AC-3
Format/Info                              : Audio Coding 3
Mode extension                           : CM (complete main)
Muxing mode                              : Header stripping
Codec ID                                 : A_AC3
Duration                                 : 1h 40mn
Bit rate mode                            : Constant
Bit rate                                 : 448 Kbps
Channel(s)                               : 2 channels
Channel positions                        : Front: L R
Sampling rate                            : 48.0 KHz
Bit depth                                : 16 bits
Compression mode                         : Lossy
Delay relative to video                  : -5ms
Stream size                              : 322 MiB (21%)
Title                                    : Japanese 2.0
Language                                 : Japanese
Default                                  : No
Forced                                   : No

Text
ID                                       : 4
Format                                   : UTF-8
Codec ID                                 : S_TEXT/UTF8
Codec ID/Info                            : UTF-8 Plain Text
Title                                    : Italian
Language                                 : Italian
Default                                  : No
Forced                                   : No

Menu
00:00:00.000                             : :00:00:00.000
00:02:03.423                             : :00:02:03.423
00:11:45.071                             : :00:11:45.071
00:19:35.408                             : :00:19:35.408
00:24:52.091                             : :00:24:52.091
00:31:30.055                             : :00:31:30.055
00:36:26.117                             : :00:36:26.117
00:55:44.841                             : :00:55:44.841
01:06:34.791                             : :01:06:34.791
01:11:21.110                             : :01:11:21.110
01:23:00.976                             : :01:23:00.976
01:37:10.792                             : :01:37:10.792
01:39:28.029                             : :01:39:28.029




[/spoiler]




Hash: 6926C526EBF4EFE532D89D1348C507EAF96004F5

If our torrent is not available, you can try to find it on Google or Torrageor Btcache.





Please rate and Add comment in form below.
Opinions about this torrent help others users