Lupin III - Il ritorno di Pycal - Il ritorno del mago (2002).H264.3xita.Jpn.Sub.ita.iCV-MIRCrew

Main Language: | Added:23-08-2017 | Author: robbyrs | Category: Animation/Cartoons |

Size:

789.94 MB

Seeders:

3

Leechers:

9

Complete:

0

Description:

Full Title: Lupin III - Il ritorno di Pycal - Il ritorno del mago (2002).H264.3xita.Jpn.Sub.ita.iCV-MIRCrew
Lupin III - Il ritorno di Pycal - Il ritorno del mago (2002).H264.3xita.Jpn.Sub.ita.iCV-MIRCrew




NO FOUND ONLY ORIGINAL RELEASE



My release is always in double track audio italian and Original audio
for select it use VLC or dvd player home
not use wmp

Lupin III - Il ritorno di Pycal - Il ritorno del mago (2002)

Versione tre doppiaggi

Presenti 2 tracce audio ITA vari doppiaggi







Autore Monkey Punch
Regia Mamoru Hamatsu
Musiche Yuji Ono
Studio TMS Entertainment
1ª edizione 3 aprile 2002
Aspect ratio 16:9 (con brevi scene in 4:3)
Durata 50 min



*****************

Doppiatori:

Personaggio Originale Italiano
Lupin III Kan'ichi Kurita Roberto Del Giudice
Daisuke Jigen Kiyoshi Kobayashi Sandro Pellegrini
Fujiko Mine Eiko Masuyama Alessandra Korompay
Goemon Ishikawa Makio Inoue Antonio Palumbo
Ispettore Koichi Zenigata Goro Naya Rodolfo Bianchi
Pycal Nachi Nozawa Gaetano Varcasia



Lupin ruba una gemma da una festa sul Mediterraneo, per poi essere interrotto da Pycal (chiamato anche Paikar o Whisky), l'illusionista che era apparentemente morto durante uno scontro con Lupin all'inizio della prima serie. Ora Pycal, dotato di veri poteri magici, cerca la sua vendetta.



30 years after "The Magician who lived".












[spoiler]
General
Unique ID                                : 174644372024634717132180956214918882330 (0x8363485683843204AFA92F2E4DD3A41A)
Complete name                            : Lupin III - Il ritorno di Pycal (2002).H264.ita.ita.jpn.sub.ita.iCV-MIRCrew\Lupin III - Il ritorno di Pycal (2002).H264.ita.ita.jpn.sub.ita.iCV-MIRCrew.mkv
Format                                   : Matroska
Format version                           : Version 2
File size                                : 790 MiB
Duration                                 : 45mn 39s
Overall bit rate                         : 2 418 Kbps
Movie name                               : www.icv-crew.org
Encoded date                             : UTC 2017-08-20T15:51:53Z
Writing application                      : mkvmerge v5.4.0 ('Piper') built on Mar 10 2012 13:34:39
Writing library                          : Lavf55.12.0

Video
ID                                       : 1
Format                                   : AVC
Format/Info                              : Advanced Video Codec
Format profile                           : [email protected]
Format settings, CABAC                   : Yes
Format settings, ReFrames                : 4 frames
Muxing mode                              : Header stripping
Codec ID                                 : V_MPEG4/ISO/AVC
Duration                                 : 45mn 39s
Bit rate                                 : 1 218 Kbps
Nominal bit rate                         : 1 290 Kbps
Width                                    : 720 pixels
Height                                   : 404 pixels
Display aspect ratio                     : 16:9
Frame rate mode                          : Variable
Frame rate                               : 25.000 fps
Color space                              : YUV
Chroma subsampling                       : 4:2:0
Bit depth                                : 8 bits
Scan type                                : Progressive
Bits/(Pixel*Frame)                       : 0.168
Stream size                              : 398 MiB (50%)
Title                                    : Lupin III - Il ritorno di Pycal (2002).H264.ita.jpn.sub.ita.iCV-MIRCrew
Writing library                          : x264 core 142 r2479 dd79a61
Encoding settings                        : cabac=1 / ref=1 / deblock=1:1:1 / analyse=0x1:0x111 / me=hex / subme=2 / psy=1 / psy_rd=0.40:0.00 / mixed_ref=0 / me_range=16 / chroma_me=1 / trellis=0 / 8x8dct=0 / cqm=0 / deadzone=21,11 / fast_pskip=1 / chroma_qp_offset=0 / threads=12 / lookahead_threads=3 / sliced_threads=0 / nr=0 / decimate=1 / interlaced=0 / bluray_compat=0 / constrained_intra=0 / bframes=5 / b_pyramid=2 / b_adapt=1 / b_bias=0 / direct=1 / weightb=1 / open_gop=0 / weightp=1 / keyint=250 / keyint_min=25 / scenecut=40 / intra_refresh=0 / rc_lookahead=10 / rc=abr / mbtree=1 / bitrate=1290 / ratetol=1.0 / qcomp=0.60 / qpmin=0 / qpmax=69 / qpstep=4 / vbv_maxrate=20000 / vbv_bufsize=25000 / nal_hrd=none / filler=0 / ip_ratio=1.40 / aq=1:0.60
Language                                 : Italian
Default                                  : Yes
Forced                                   : No
Color primaries                          : BT.709-5, BT.1361, IEC 61966-2-4, SMPTE RP177
Transfer characteristics                 : BT.709-5, BT.1361
Matrix coefficients                      : BT.709-5, BT.1361, IEC 61966-2-4 709, SMPTE RP177

Audio #1
ID                                       : 2
Format                                   : AC-3
Format/Info                              : Audio Coding 3
Mode extension                           : CM (complete main)
Muxing mode                              : Header stripping
Codec ID                                 : A_AC3
Duration                                 : 45mn 39s
Bit rate mode                            : Constant
Bit rate                                 : 384 Kbps
Channel(s)                               : 6 channels
Channel positions                        : Front: L C R, Side: L R, LFE
Sampling rate                            : 48.0 KHz
Bit depth                                : 16 bits
Compression mode                         : Lossy
Delay relative to video                  : -5ms
Stream size                              : 125 MiB (16%)
Title                                    : Surround
Language                                 : Italian
Default                                  : Yes
Forced                                   : No

Audio #2
ID                                       : 3
Format                                   : AC-3
Format/Info                              : Audio Coding 3
Mode extension                           : CM (complete main)
Muxing mode                              : Header stripping
Codec ID                                 : A_AC3
Duration                                 : 45mn 39s
Bit rate mode                            : Constant
Bit rate                                 : 384 Kbps
Channel(s)                               : 6 channels
Channel positions                        : Front: L C R, Side: L R, LFE
Sampling rate                            : 48.0 KHz
Bit depth                                : 16 bits
Compression mode                         : Lossy
Delay relative to video                  : -5ms
Stream size                              : 125 MiB (16%)
Title                                    : Surround
Language                                 : Italian
Default                                  : No
Forced                                   : No

Audio #3
ID                                       : 4
Format                                   : AC-3
Format/Info                              : Audio Coding 3
Mode extension                           : CM (complete main)
Muxing mode                              : Header stripping
Codec ID                                 : A_AC3
Duration                                 : 45mn 39s
Bit rate mode                            : Constant
Bit rate                                 : 192 Kbps
Channel(s)                               : 2 channels
Channel positions                        : Front: L R
Sampling rate                            : 48.0 KHz
Bit depth                                : 16 bits
Compression mode                         : Lossy
Delay relative to video                  : -5ms
Stream size                              : 62.7 MiB (8%)
Title                                    : Stereo
Language                                 : Italian
Default                                  : No
Forced                                   : No

Audio #4
ID                                       : 5
Format                                   : AC-3
Format/Info                              : Audio Coding 3
Mode extension                           : CM (complete main)
Muxing mode                              : Header stripping
Codec ID                                 : A_AC3
Duration                                 : 45mn 39s
Bit rate mode                            : Constant
Bit rate                                 : 192 Kbps
Channel(s)                               : 2 channels
Channel positions                        : Front: L R
Sampling rate                            : 48.0 KHz
Bit depth                                : 16 bits
Compression mode                         : Lossy
Delay relative to video                  : -5ms
Stream size                              : 62.7 MiB (8%)
Title                                    : Stereo
Language                                 : Japanese
Default                                  : No
Forced                                   : No

Menu
00:00:00.000                             : :Chapter 1
00:08:17.240                             : :Chapter 2
00:16:32.840                             : :Chapter 3
00:23:55.840                             : :Chapter 4
00:31:56.320                             : :Chapter 5
00:39:00.720                             : :Chapter 6



[/spoiler]




Hash: 55DE978724A56AFC65DB669BDAFA6146004048C5

If our torrent is not available, you can try to find it on Google or Torrageor Btcache.





Please rate and Add comment in form below.
Opinions about this torrent help others users