James and the Giant Peach - James e la pesca gigante (1996).Italian.English.Ac3.sub.ita.e

Main Language: | Added:27-08-2017 | Author: robbyrs | Category: Animation/Cartoons |

Size:

1.21 GB

Seeders:

1

Leechers:

2

Complete:

0

Description:

Full Title: James and the Giant Peach - James e la pesca gigante (1996).Italian.English.Ac3.sub.ita.e
James and the Giant Peach - James e la pesca gigante (1996).Italian.English.Ac3.sub.ita.eng.iCV-MIRCrew




NO FOUND ONLY ORIGINAL RELEASE



My release is always in double track audio italian and Original audio
for select it use VLC or dvd player home
not use wmp

James e la pesca gigante - James and the Giant Peach (1996)







Titolo originale James and the Giant Peach
Lingua originale inglese
Paese di produzione Gran Bretagna, USA
Anno 1996
Durata 78 min
Rapporto 1.66:1
Genere animazione, fantastico, musicale
Regia Henry Selick
Soggetto Roald Dahl
Sceneggiatura Karey Kirkpatrick, Jonathan Roberts, Steve Bloom
Produttore Tim Burton, Denise Di Novi, John Engel, Brian Rosen, Henry Selick
Produttore esecutivo Jake Eberts
Casa di produzione Allied Filmmakers, Skellington Productions Inc., Walt Disney Pictures
Distribuzione (Italia) Buena Vista International
Fotografia Pete Kozachik, Hiro Narita, Eric Swenson
Montaggio Stan Webb
Effetti speciali Billy Burger, Noah Cornell, Steve Riley, John Stephenson
Musiche Randy Newman
Scenografia Kris Boxell
Costumi Julie Slinger
Trucco Janice Alexander, Karen Bradley, Judith E. Disbrow, Leslee Newcomb, Richard Snell
Storyboard Kelly Asbury, Mike Cachuela, Joe Ranft, John Stevenson, Pete von Sholly
Art director Kendal Cronkhite, Blake Russell, Lane Smith
Character design Gisela Hermeling, Bonita R. DeCarlo
Animatori Billy Burger, Stephen A. Buckley, Sean Mathiesen, Mike Perry, Kathleen Quaife-Hodge, Marc Rubone, Mike Belzer, Paul Berry, Stephen A. Buckley, Sean Burns, Kent Burton, Webster Colcord, Chuck Duke, Sari Gennis, Tom Gibbons, Chris Gilligan, Timothy Hittle, Jerrold Howard, Josephine Huang, Mike Johnson, Owen Klatte, Justin Kohn, Eric Leighton, Kelly Lepkowsky, Guionne Leroy, Daniel Mason, Laura Schultz, Anthony Scott, Trey Thomas, Richard C. Zimmerman




    Paul Terry: James
    Joanna Lumley: Zia Stecco
    Miriam Margolyes: Zia Spugna
    Pete Postlethwaite: Vecchio Uomo
    Steven Culp: Padre di James
    Susan Turner-Cray: Madre di James
    Cirocco Dunlap: Bambina col telescopio
    Mike Starr: Poliziotto
    Al Nalbandian: Gruista




James Henry Trotter è un ragazzino di 7 anni rimasto orfano (da quando i suoi genitori furono uccisi da un rinoceronte venuto dal nulla) e costretto a vivere con le sue due malvagie e prepotenti zie: Stecco e Spugna. James sogna di vivere una vita più bella a New York, come voleva fare con i suoi genitori. Un giorno, dopo aver salvato un ragno dalle isteriche zie, James incontra un vecchio soldato confederato che gli dona una scatola piena di "lingue di coccodrillo" magiche, prima di scomparire nel nulla. .............



An orphan, who lives with his two cruel aunts, befriends anthropomorphic bugs who live inside a giant peach, and they embark on a journey to New York City.












[spoiler]
General
Complete name                            : James e la pesca gigante - James and the Giant Peach (1996).ita.eng.sub.ita.eng.MIRCrew.avi
Format                                   : AVI
Format/Info                              : Audio Video Interleave
File size                                : 1.19 GiB
Duration                                 : 1h 19mn
Overall bit rate                         : 2 153 Kbps
Movie name                               : MIRCrew by robbyrs
Writing application                      : VirtualDubMod 1.5.10.2 (build 2540/release)
Writing library                          : VirtualDubMod build 2540/release

Video
ID                                       : 0
Format                                   : MPEG-4 Visual
Format profile                           : [email protected]
Format settings, BVOP                    : No
Format settings, QPel                    : No
Format settings, GMC                     : No warppoints
Format settings, Matrix                  : Default (H.263)
Codec ID                                 : XVID
Codec ID/Hint                            : XviD
Duration                                 : 1h 19mn
Bit rate                                 : 1 498 Kbps
Width                                    : 720 pixels
Height                                   : 432 pixels
Display aspect ratio                     : 1.667
Frame rate                               : 23.976 fps
Color space                              : YUV
Chroma subsampling                       : 4:2:0
Bit depth                                : 8 bits
Scan type                                : Progressive
Compression mode                         : Lossy
Bits/(Pixel*Frame)                       : 0.201
Stream size                              : 851 MiB (70%)
Writing library                          : XviD 64

Audio #1
ID                                       : 1
Format                                   : AC-3
Format/Info                              : Audio Coding 3
Mode extension                           : CM (complete main)
Codec ID                                 : 2000
Duration                                 : 1h 19mn
Bit rate mode                            : Constant
Bit rate                                 : 256 Kbps
Channel(s)                               : 2 channels
Channel positions                        : Front: L R
Sampling rate                            : 48.0 KHz
Bit depth                                : 16 bits
Compression mode                         : Lossy
Stream size                              : 145 MiB (12%)
Alignment                                : Split accross interleaves
Interleave, duration                     : 42 ms (1.00 video frame)
Interleave, preload duration             : 500 ms

Audio #2
ID                                       : 2
Format                                   : AC-3
Format/Info                              : Audio Coding 3
Mode extension                           : CM (complete main)
Codec ID                                 : 2000
Duration                                 : 1h 19mn
Bit rate mode                            : Constant
Bit rate                                 : 384 Kbps
Channel(s)                               : 6 channels
Channel positions                        : Front: L C R, Side: L R, LFE
Sampling rate                            : 48.0 KHz
Bit depth                                : 16 bits
Compression mode                         : Lossy
Stream size                              : 218 MiB (18%)
Alignment                                : Split accross interleaves
Interleave, duration                     : 42 ms (1.00 video frame)
Interleave, preload duration             : 500 ms



[/spoiler]




Hash: 2F28F6F23BDF7CFC1D6F53D254EDD35A14C2B7BC

If our torrent is not available, you can try to find it on Google or Torrageor Btcache.





Please rate and Add comment in form below.
Opinions about this torrent help others users